#TITLE:Night Of Fire;
#SUBTITLE:;
#ARTIST:Niko;
#TITLETRANSLIT:;
#SUBTITLETRANSLIT:;
#ARTISTTRANSLIT:;
#CREDIT:;
#BANNER:NightOfFire-banner.png;
#BACKGROUND:NightOfFire-bg.png;
#LYRICSPATH:;
#CDTITLE:;
#MUSIC:Night Of Fire.mp3;
#MUSICLENGTH:93.369;
#OFFSET:1.000;
#SAMPLESTART:50.605;
#SAMPLELENGTH:12.000;
#SELECTABLE:YES;
#BPMS:0.000=155.040;
#STOPS:35.500=0.660
;
#BGCHANGES:20.000=NOF TitleEmbers=1.000=1=0=1
,36.000=NOF Coils=1.000=0=0=1
,44.000=NOF CircleFlames=1.000=0=0=1
,52.000=NOF Coils=1.000=0=0=1
,60.000=NOF CircleFlames=1.000=0=0=1
,68.000=NOF BurnGrid=1.000=0=0=1
,100.000=NOF Colorwheel=1.000=0=0=1
,108.000=NOF CircleFlames=1.000=0=0=1
,109.000=NOF TitleEmbers=1.000=0=0=1
,110.000=NOF CircleFlames=1.000=0=0=1
,111.000=NOF TitleEmbers=1.000=0=0=1
,112.000=NOF CircleFlames=1.000=0=0=1
,116.000=NOF Colorwheel=1.000=0=0=1
,132.000=NOF Coils=1.000=0=0=1
,148.000=NOF BurnGrid=1.000=0=0=1
,164.000=NOF Coils=1.000=0=0=1
,180.000=NOF BurnGrid=1.000=0=0=1
,194.000=NOF TitleEmbers=2.000=0=0=1
,194.500=NOF BurnGrid=2.000=0=0=1
,195.000=NOF TitleEmbers=2.000=0=0=1
,195.500=NOF BurnGrid=2.000=0=0=1
,196.000=NOF TitleEmbers=2.000=0=0=1
,212.000=NOF CircleFlames=2.000=0=0=1
,220.000=NOF Coils=2.000=0=0=1
,226.000=NightOfFire-bg.png=1.000=0=0=1
;
#FIRSTBEAT:19.500;

#LASTBEAT:228.000;

#SONGFILENAME:Songs/ERICth The 3rd/Night Of Fire/nightoffire.sm;

#HASMUSIC:1;

#HASBANNER:1;


//---------------dance-single - MANIAC----------------
#NOTES:
     dance-single:
     MANIAC:
     hard:
     8:
     0.539,0.580,0.214,0.107,0.193,322.000,20.000,10.000,0.000,0.000:

0000
0000
0000
0000
,
0000
0000
0000
0000
,
0000
0000
0000
0000
,
0000
0000
0000
0000
,
0000
0000
0000
0000
0000
0000
0000
0010
,
0100
0100
0100
0100
,
0100
0100
0100
0100
,
0100
0100
0100
0100
,
0010
0000
0000
0100
0000
0000
0010
0000
0000
0100
0000
0000
0010
0000
0100
0000
,
1000
0100
0010
0100
0010
0100
0010
0000
,
0001
0010
0000
0010
0100
0000
0100
1000
0000
1000
0001
0000
0001
0000
0100
0000
,
0001
0100
0010
0100
0010
0100
0010
0000
,
1000
0100
0000
0100
0010
0000
0010
0001
0000
0001
1000
0000
1000
0000
0100
0000
,
0010
0001
1000
0100
1000
0001
1000
0000
,
0001
1000
0000
1000
0001
0000
0001
1000
0000
1000
0001
0000
0001
0000
1000
0000
,
0001
1000
0100
1000
0010
0001
0010
1000
,
0100
0000
0000
0110
0000
0000
0010
0000
0000
0110
0000
0000
0100
0000
0010
0000
,
1000
0100
0010
0001
0010
0100
1000
0000
,
0100
0001
1000
0010
1000
0001
0100
0010
,
0200
0000
0000
0300
,
1000
0010
0000
0010
1000
0000
1000
0010
0000
0010
1000
0000
1000
0000
0010
0000
,
0001
0010
0100
1000
0100
0010
0001
0000
,
1000
0010
0100
0001
0100
0010
1000
0100
,
0020
0000
0000
0000
0000
0000
0000
0030
,
1000
0100
0000
0100
0010
0000
0010
0001
0000
0001
1000
0000
0010
0000
0010
0000
,
0001
0000
0001
0010
0000
0010
0000
1000
,
0000
1000
0100
0000
0010
0000
0110
0000
,
1000
0100
1100
0000
0010
0001
0011
0000
,
0010
0001
0100
0200
0000
0000
0300
0001
,
1000
0000
1000
0010
0000
0010
0000
0001
,
0000
0001
0100
0000
0100
0000
1100
0000
,
2002
0000
3003
0000
0220
0330
0000
2001
,
0000
0001
3001
1000
0100
0010
0000
0000
,
0100
0000
1000
0000
0001
1000
0000
0000
,
0000
1000
0100
0010
1000
0100
0010
0000
,
0000
0001
0100
0010
0001
0100
0010
0100
,
0000
0100
0100
0100
0100
0000
0100
0000
,
1001
0000
0011
0000
1100
1000
0000
0000
,
0000
0010
0001
0010
0001
0010
0001
0000
,
0000
0010
1000
0010
1000
0010
1000
0010
,
0000
0001
0010
1000
0010
0000
0001
0000
,
0100
0000
1000
0000
0001
1000
0000
0000
,
0000
1000
0100
0010
1000
0100
0010
0000
,
0000
0001
0100
0010
0001
0100
0010
0100
,
0000
0100
0100
0100
0100
0000
0100
0000
,
1001
0000
0011
0000
1100
1000
0000
0000
,
0000
0010
0001
0010
0001
0010
0001
0000
,
0000
0010
1000
0010
1000
0010
1000
0010
,
0000
1001
1001
1001
1001
0000
0110
0000
,
1000
0100
0010
0100
0010
0100
0010
0000
,
0001
0010
0000
0010
0100
0000
0100
1000
0000
1000
0001
0000
0001
0000
0100
0000
,
0001
0100
0010
0100
0010
0100
0010
0000
,
1000
0100
0000
0100
0010
0000
0010
0001
0000
0001
1000
0000
1000
0000
0100
0000
,
0010
0001
1000
0100
1000
0001
1000
0000
,
0001
1000
0000
1000
0001
0000
0001
1000
0000
1000
0001
0000
0001
0000
1000
0000
,
0001
1000
0100
1000
0010
0001
0010
1000
,
0200
0000
0320
0000
,
0030
0000
0000
0000
,;

//---------------dance-single - ANOTHER----------------
#NOTES:
     dance-single:
     ANOTHER:
     medium:
     5:
     0.324,0.393,0.064,0.011,0.000,205.000,6.000,1.000,0.000,0.000:



0000
0000
0000
0000
,
0000
0000
0000
0000
,
0000
0000
0000
0000
,
0000
0000
0000
0000
,
0000
0000
0000
0000
,
0100
0000
0100
0000
,
0100
0000
0100
0000
,
0100
0000
0100
0000
,
0001
0000
0001
0000
,
1000
1000
0100
0000
,
0010
0001
0000
0010
0000
0000
0000
0000
,
0001
1000
0100
0000
,
0100
1000
0000
1000
0000
0000
0000
0000
,
0010
0100
0001
0010
,
0001
0010
0000
0010
0000
0000
0000
0000
,
0001
1000
0100
0010
,
0010
0100
0000
0100
0000
0000
0000
0000
,
0010
0000
1000
0000
0001
1000
0100
0000
,
0010
0000
0100
0000
0001
1000
0100
0010
,
0001
0001
1000
0100
,
1000
0000
0001
0000
,
0100
0000
0010
0000
1000
0001
0100
0000
,
0010
0000
1000
0000
0010
1000
0100
1000
,
0010
0001
1000
0100
,
0010
0000
0010
0000
,
1001
0000
0100
1000
0000
0010
0000
1000
,
0000
0100
1000
0000
0010
0000
1000
0000
,
0001
1000
0000
0000
0001
1000
0000
0000
,
0100
1000
0010
1000
0000
0000
0000
0000
,
0001
0000
1000
0001
0000
0010
0000
0001
,
0000
0100
0010
0000
1000
0000
0001
0000
,
1100
0000
0000
0000
0101
0000
0000
1010
,
0000
1000
0001
1000
0100
0010
0000
0000
,
0001
0000
1000
0000
0100
1000
0000
0000
,
0000
0001
0100
1000
0001
0100
0000
0000
,
0000
0001
0100
1000
0001
0100
0000
0001
,
0000
0000
0100
0100
,
0001
0000
1000
0000
0010
0100
0000
0000
,
0000
1000
0010
0001
1000
0010
0000
0000
,
0000
1000
0010
0001
1000
0010
0000
0001
,
0000
1000
0100
0010
,
0011
0000
0100
0000
0001
0010
0000
0000
,
0000
0001
1000
0001
0000
0001
1000
0000
,
0000
0001
1000
0001
0000
0001
1000
0000
,
0000
0100
0010
0000
0010
0000
1000
0000
,
0001
0000
0010
0000
0100
0010
0000
0000
,
0000
1000
0010
1000
0010
1000
0010
0000
,
0000
1000
0010
1000
0010
1000
0010
1000
,
0000
0001
1000
1001
,
0100
1000
0010
1000
,
0100
0010
0000
0100
0000
0000
0000
0000
,
0001
1000
0010
0000
0100
0000
0001
0000
,
1000
0010
0000
0010
0000
0000
0000
0000
,
0001
0100
1000
0000
0100
0010
0000
0000
,
0010
0001
0000
0010
0000
0000
0000
0000
,
0001
1000
0010
0000
0000
0000
0001
0000
,
2000
0000
0001
3000
0001
0000
0000
0000
,;

//---------------dance-single - BASIC----------------
#NOTES:
     dance-single:
     BASIC:
     easy:
     1:
     0.237,0.363,0.096,0.054,0.000,141.000,9.000,5.000,0.000,0.000:







0000
0000
0000
0000
,
0000
0000
0000
0000
,
0000
0000
0000
0000
,
0000
0000
0000
0000
,
0000
0000
0000
0000
,
0002
0000
0000
0000
,
0000
0000
0000
0000
,
0000
0000
0000
0000
,
0000
0000
0003
0000
,
1000
0100
0010
0000
,
0001
0000
0001
0000
,
1000
0100
0010
0000
,
0001
0000
0001
0000
,
1000
0100
0010
0000
,
0001
0000
0001
0000
,
1000
0100
0010
0000
,
0001
0000
0001
0000
,
0010
1000
0001
0100
,
0000
0000
0010
1000
,
0001
0000
0000
0000
,
0001
0001
0001
0001
,
1000
0000
0000
0100
,
0010
0000
0001
1000
,
0001
0000
0000
0000
,
1000
1000
1000
1000
,
0010
1000
0100
0000
,
0010
0001
0100
0000
,
0100
0010
0100
0010
,
0100
0010
0100
0010
,
0010
0001
0100
0000
,
0010
1000
0100
0000
,
0100
0000
0000
0000
,
0000
0000
0000
0000
,
1001
0010
1000
0100
,
0000
0001
0100
0001
,
0000
1000
0100
1000
,
0010
0100
0100
0000
,
1001
0100
0010
0000
,
0000
0010
1000
0001
,
0000
0010
0001
0100
,
0010
1000
0001
0100
,
0101
0101
0101
0100
,
0010
0001
1000
0001
,
0020
0001
0001
0031
,
1000
0010
0100
0001
,
2000
3200
0310
0001
,
0100
0001
1000
0100
,
0000
0010
0000
1001
,
0000
0000
1001
1001
,
1001
0010
1000
0100
,
0010
0001
1000
0001
,
1000
0100
0010
0000
,
0001
0001
0001
0000
,
1000
0100
0010
0000
,
0001
0001
0001
0000
,
1000
0100
0010
0000
,
0002
0000
0003
0000
,;
